hit counter
Bad Cat 2016 x264 720p WebHD Esub AAC English Hindi THE GOPI SAHI > 영화 > 모던 토렌트 더토렌트
 [구글검색] 구글에서 더토렌트 검색 - 구글에서 토렌트를 검색하실 때에 검색어 뒤에 더토렌트를 꼭 붙여서 검색하세요.     더토렌트에서 광고중인 웹에 문제가 있다면 메뉴에 나와 있는 운영자 이메일로 연락 주십시오.     사용자님의 다운로드가 완료될 때까지 저희가 함께하겠습니다. 편안하고 즐거운 시간 되십시오.

파일비트

Bad Cat 2016 x264 720p WebHD Esub AAC English Hindi THE GOPI SAHI       
댓글 0 조회 23 인증 0 신고 0

Bad Cat 2016 x264 720p WebHD Esub AAC English Hindi THE GOPI SAHI
Bad Cat 2016 x264 720p WebHD Esub AAC English Hindi THE GOPI SAHI
d704542b2df11cc20ac32f76f1233e24.md.jpg

Bad Cat 2016 x264 720p WebHD Esub AAC English Hindi THE GOPI SAHI

Format : Matroska
Format version : Version 4
File size : 621 MiB
Duration : 1 h 19 min
Overall bit rate : 1 095 kb/s
Movie name : Bad Cat 2016 GOPI SAHI
Encoded date : UTC 2021-10-15 15:35:38

Video
ID : 1
Format : AVC
Format/Info : Advanced Video Codec
Format profile : [email protected]
Format settings : CABAC / 12 Ref Frames
Format settings, CABAC : Yes
Format settings, Reference fra : 12 frames
Codec ID : V_MPEG4/ISO/AVC
Duration : 1 h 19 min
Bit rate : 899 kb/s
Width : 1 280 pixels
Height : 534 pixels
Display aspect ratio : 2.40:1
Frame rate mode : Constant
Frame rate : 25.000 FPS
Color space : YUV
Chroma subsampling : 4:2:0
Bit depth : 8 bits
Scan type : Progressive
Bits/(Pixel*Frame) : 0.053
Stream size : 510 MiB (82%)
Title : GOPI SAHI
Writing library : x264 core 163 r3059 b684ebe0

Audio #1
ID : 2
Format : AAC LC
Format/Info : Advanced Audio Codec Low Complexity
Codec ID : A_AAC-2
Duration : 1 h 19 min
Bit rate : 96.0 kb/s
Channel(s) : 2 channels
Channel layout : L R
Sampling rate : 48.0 kHz
Frame rate : 46.875 FPS (1024 SPF)
Compression mode : Lossy
Delay relative to video : -21 ms
Stream size : 54.6 MiB (9%)
Title : GOPI SAHI
Language : Hindi
Default : Yes
Forced : No

Audio #2
ID : 3
Format : AAC LC
Format/Info : Advanced Audio Codec Low Complexity
Codec ID : A_AAC-2
Duration : 1 h 19 min
Bit rate : 96.0 kb/s
Channel(s) : 2 channels
Channel layout : L R
Sampling rate : 48.0 kHz
Frame rate : 46.875 FPS (1024 SPF)
Compression mode : Lossy
Delay relative to video : -21 ms
Stream size : 54.6 MiB (9%)
Title : GOPI SAHI
Language : English
Default : No
Forced : No

Text
Language : English

ff59870b9e06f710e59e8beb2a905e20.md.jpg

50a6a268e182e2cadc1e3f1b1a93b4cd.md.jpg

Greets

Admin , Moderator , Noir, Ex0duS5150, theeshiznit, MisterQ, UserHEVC, miok, Silmarillion, Mr. Blue, MaDHeX and many more ;

Join Us On TeleGram

https://t.me/gopisahit

d704542b2df11cc20ac32f76f1233e24.md.jpg

Bad Cat 2016 x264 720p WebHD Esub AAC English Hindi THE GOPI SAHI

Format : Matroska
Format version : Version 4
File size : 621 MiB
Duration : 1 h 19 min
Overall bit rate : 1 095 kb/s
Movie name : Bad Cat 2016 GOPI SAHI
Encoded date : UTC 2021-10-15 15:35:38

Video
ID : 1
Format : AVC
Format/Info : Advanced Video Codec
Format profile : [email protected]
Format settings : CABAC / 12 Ref Frames
Format settings, CABAC : Yes
Format settings, Reference fra : 12 frames
Codec ID : V_MPEG4/ISO/AVC
Duration : 1 h 19 min
Bit rate : 899 kb/s
Width : 1 280 pixels
Height : 534 pixels
Display aspect ratio : 2.40:1
Frame rate mode : Constant
Frame rate : 25.000 FPS
Color space : YUV
Chroma subsampling : 4:2:0
Bit depth : 8 bits
Scan type : Progressive
Bits/(Pixel*Frame) : 0.053
Stream size : 510 MiB (82%)
Title : GOPI SAHI
Writing library : x264 core 163 r3059 b684ebe0

Audio #1
ID : 2
Format : AAC LC
Format/Info : Advanced Audio Codec Low Complexity
Codec ID : A_AAC-2
Duration : 1 h 19 min
Bit rate : 96.0 kb/s
Channel(s) : 2 channels
Channel layout : L R
Sampling rate : 48.0 kHz
Frame rate : 46.875 FPS (1024 SPF)
Compression mode : Lossy
Delay relative to video : -21 ms
Stream size : 54.6 MiB (9%)
Title : GOPI SAHI
Language : Hindi
Default : Yes
Forced : No

Audio #2
ID : 3
Format : AAC LC
Format/Info : Advanced Audio Codec Low Complexity
Codec ID : A_AAC-2
Duration : 1 h 19 min
Bit rate : 96.0 kb/s
Channel(s) : 2 channels
Channel layout : L R
Sampling rate : 48.0 kHz
Frame rate : 46.875 FPS (1024 SPF)
Compression mode : Lossy
Delay relative to video : -21 ms
Stream size : 54.6 MiB (9%)
Title : GOPI SAHI
Language : English
Default : No
Forced : No

Text
Language : English

ff59870b9e06f710e59e8beb2a905e20.md.jpg

50a6a268e182e2cadc1e3f1b1a93b4cd.md.jpg

110a3e29968f44da50c28c45df6c1fb3.md.jpg

Bad Cat 2016 x264 720p WebHD Esub AAC English Hindi THE GOPI SAHI


<< 이 게시판에서 관련된 자료 목록 >>
0 Comments     0.0 / 0
 [구글검색] 구글에서 더토렌트 검색 - 구글에서 토렌트를 검색하실 때에 검색어 뒤에 더토렌트를 꼭 붙여서 검색하세요.     더토렌트에서 광고중인 웹에 문제가 있다면 메뉴에 나와 있는 운영자 이메일로 연락 주십시오. 우리는 당신에게 꼭 필요한 사이트만 광고합니다.     사용자님의 다운로드가 완료될 때까지 저희가 함께하겠습니다. 편안하고 즐거운 시간 되십시오.

파일비트

오늘(6시간)의 업데이트


오늘의 인기 검색어


현재 인기있는 자료


영화 인기글


오늘의 인기글


실시간 검색어


3일 인기 자료


Facebook Twitter GooglePlus KakaoStory NaverBand