Old.2021.iTA-ENG.WEBDL.2160p.HDR.x265-CYBER.mkv > 영화 > 모던 토렌트 더토렌트

팝업레이어 알림

팝업레이어 알림이 없습니다.
 [구글검색] 구글에서 더토렌트 검색 - 구글에서 토렌트를 검색하실 때에 검색어 뒤에 더토렌트를 꼭 붙여서 검색하세요.     더토렌트에서 광고중인 웹에 문제가 있다면 메뉴에 나와 있는 운영자 이메일로 연락 주십시오.     사용자님의 다운로드가 완료될 때까지 저희가 함께하겠습니다. 편안하고 즐거운 시간 되십시오.

파일몽

  

  
Old.2021.iTA-ENG.WEBDL.2160p.HDR.x265-CYBER.mkv
  • 줄거리:    Info - Plot USA, 2021 Genere: Thriller durata 121 Regia di M. Night Shyamalan Con Gael Garc챠a Bernal, Vicky Krieps, Rufus Sewell, Alex Wolff, Thomasin McKenzie, Abbey Lee, Nikki Amuka-Bird, Ken Leung, Eliza Scanlen. Una famiglia in vacanza su unisola tropicale si sta concedendo sole e relax sulla morbida sabbia di una spiaggia isolata. Sembra tutto perfetto fino a quando diventa chiaro che stanno tutti invecchiando rapidissimamente e che, stando a un rapido calcolo, la loro intera vita rischia di essersi ridotta a un unico giorno. Cosa sta succedendo? E c챔 un modo per impedire che la morte sopraggiunga? Images Title Info - Plot USA, 2021 Genere: Thriller durata 121 Regia di M. Night Shyamalan Con Gael Garc챠a Bernal, Vicky Krieps, Rufus Sewell, Alex Wolff, Thomasin McKenzie, Abbey Lee, Nikki Amuka-Bird, Ken Leung, Eliza Scanlen. Una famiglia in vacanza su unisola tropicale si sta concedendo sole e relax sulla morbida sabbia di una spiaggia isolata. Sembra tutto perfetto fino a quando diventa chiaro che stanno tutti invecchiando rapidissimamente e che, stando a un rapido calcolo, la loro intera vita rischia di essersi ridotta a un unico giorno. Cosa sta succedendo? E c챔 un modo per impedire che la morte sopraggiunga? Images Report Code:General Unique ID : 327858833366776342957364185123626306432 (0xF6A7508130D3158A0898F7F2E0CE4B80) Complete name : E:\Old.2021\Old.2021.iTA-ENG.WEBDL.2160p.HDR.x265-CYBER.mkv Format : Matroska Format version : Version 2 File size : 12.5 GiB Duration : 1 h 48 min Overall bit rate : 16.5 Mb/s Movie name : "ENJOY" Encoded date : UTC 2021-10-13 18:30:51 Writing application : mkvmerge v45.0.0 (Heaven in Pennies) 64-bit Writing library : libebml v1.3.10 + libmatroska v1.5.2 Video ID : 1 Format : HEVC Format/Info : High Efficiency Video Coding Format profile : Main [email protected]@High HDR format : SMPTE ST 2086, HDR10 compatible Codec ID : V_MPEGH/ISO/HEVC Duration : 1 h 48 min Bit rate : 14.5 Mb/s Width : 3 840 pixels Height : 1 606 pixels Display aspect ratio : 2.40:1 Frame rate mode : Constant Frame rate : 23.976 (24000/1001) FPS Color space : YUV Chroma subsampling : 4:2:0 (Type 2) Bit depth : 10 bits Bits/(Pixel*Frame) : 0.098 Stream size : 11.0 GiB (88%) Language : English Default : Yes Forced : No Color range : Limited Color primaries : BT.2020 Transfer characteristics : PQ Matrix coefficients : BT.2020 non-constant Mastering display color primaries : BT.2020 Mastering display luminance : min: 0.0050 cd/m2, max: 1000 cd/m2 Maximum Content Light Level : 430 cd/m2 Maximum Frame-Average Light Level : 108 cd/m2 Audio #1 ID : 2 Format : AC-3 Format/Info : Audio Coding 3 Commercial name : Dolby Digital Codec ID : A_AC3 Duration : 1 h 48 min Bit rate mode : Constant Bit rate : 640 kb/s Channel(s) : 6 channels Channel layout : L R C LFE Ls Rs Sampling rate : 48.0 kHz Frame rate : 31.250 FPS (1536 SPF) Compression mode : Lossy Stream size : 498 MiB (4%) Language : Italian Service kind : Complete Main Default : Yes Forced : No Audio #2 ID : 3 Format : AC-3 Format/Info : Audio Coding 3 Commercial name : Dolby Digital Codec ID : A_AC3 Duration : 1 h 48 min Bit rate mode : Constant Bit rate : 640 kb/s Channel(s) : 6 channels Channel layout : L R C LFE Ls Rs Sampling rate : 48.0 kHz Frame rate : 31.250 FPS (1536 SPF) Compression mode : Lossy Stream size : 496 MiB (4%) Language : Italian Service kind : Complete Main Default : No Forced : No Audio #3 ID : 4 Format : E-AC-3 JOC Format/Info : Enhanced AC-3 with Joint Object Coding Commercial name : Dolby Digital Plus with Dolby Atmos Codec ID : A_EAC3 Duration : 1 h 48 min Bit rate mode : Constant Bit rate : 768 kb/s Channel(s) : 6 channels Channel layout : L R C LFE Ls Rs Sampling rate : 48.0 kHz Frame rate : 31.250 FPS (1536 SPF) Compression mode : Lossy Stream size : 596 MiB (5%) Title : English Language : English Service kind : Complete Main Default : No Forced : No Complexity index : 16 Number of dynamic objects : 15 Bed channel count : 1 channel Bed channel configuration : LFE Text #1 ID : 5 Format : UTF-8 Codec ID : S_TEXT/UTF8 Codec ID/Info : UTF-8 Plain Text Duration : 1 h 18 min Bit rate : 0 b/s Count of elements : 4 Stream size : 121 Bytes (0%) Language : Italian Default : Yes Forced : No Text #2 ID : 6 Format : UTF-8 Codec ID : S_TEXT/UTF8 Codec ID/Info : UTF-8 Plain Text Duration : 1 h 46 min Bit rate : 46 b/s Count of elements : 1045 Stream size : 36.7 KiB (0%) Language : Italian Default : No Forced : No Menu 00:00:00.000 : :Chapter 1 00:05:50.224 : :Chapter 2 00:13:46.742 : :Chapter 3 00:18:35.572 : :Chapter 4 00:23:05.801 : :Chapter 5 00:28:33.169 : :Chapter 6 00:32:43.545 : :Chapter 7 00:38:01.779 : :Chapter 8 00:43:26.020 : :Chapter 9 00:47:54.496 : :Chapter 10 00:53:05.932 : :Chapter 11 01:01:33.064 : :Chapter 12 01:05:11.491 : :Chapter 13 01:08:52.461 : :Chapter 14 01:12:44.193 : :Chapter 15 01:18:59.693 : :Chapter 16 01:23:29.921 : :Chapter 17 01:29:13.348 : :Chapter 18 01:34:26.744 : :Chapter 19 01:41:18.405 : :Chapter 20 Good Download Old.2021.iTA-ENG.WEBDL.2160p.HDR.x265-CYBER.mkv…
  • 인기 연관 검색어 구글 검색:    
  • 관련 자료(가나다순):    007 골든 아이 GoldenEye 1995 720p 1080p BluRay H264 AAC RARBG - 더토렌…    황후화 滿城盡帶黃金甲 Curse Of The Golden Flower 2006 720p KOR HDRip H264…
  • 관련 자료(시간순):    스캔들 - 조선남녀상열지사 Untold Scandal 2003 AC3 Unknown - 더토렌트    Old (2021) BluRay 1080p H264 Ita Eng AC3 5 1 Sub Ita Eng - real…
  • 같은 시각 자료:    Dear.Evan.Hansen.2021.1080p.WEBRip.x264-RARBG    Amazon.Queen.2021.1080p.WEBRip.x265-RARBG
  • 마그넷링크 및 토렌트파일:     마그넷링크     토렌트파일     다시보기
직접 다운로드 무료 다운로드 무제한 다운로드 안전 다운로드
광고

Old.2021.iTA-ENG.WEBDL.2160p.HDR.x265-CYBER.mkv
댓글 0 조회 5 인증 0 신고 0

YUA8JV.jpg

Info - Plot

USA, 2021
Genere: Thriller
durata 121
Regia di M. Night Shyamalan
Con Gael Garc챠a Bernal, Vicky Krieps, Rufus Sewell, Alex Wolff, Thomasin McKenzie, Abbey Lee, Nikki Amuka-Bird, Ken Leung, Eliza Scanlen.


Una famiglia in vacanza su unisola tropicale si sta concedendo sole e relax sulla morbida sabbia di una spiaggia isolata. Sembra tutto perfetto fino a quando diventa chiaro che stanno tutti invecchiando rapidissimamente e che, stando a un rapido calcolo, la loro intera vita rischia di essersi ridotta a un unico giorno. Cosa sta succedendo? E c챔 un modo per impedire che la morte sopraggiunga?

Images



Title

YUA8JV.jpg

Info - Plot

USA, 2021
Genere: Thriller
durata 121
Regia di M. Night Shyamalan
Con Gael Garc챠a Bernal, Vicky Krieps, Rufus Sewell, Alex Wolff, Thomasin McKenzie, Abbey Lee, Nikki Amuka-Bird, Ken Leung, Eliza Scanlen.


Una famiglia in vacanza su unisola tropicale si sta concedendo sole e relax sulla morbida sabbia di una spiaggia isolata. Sembra tutto perfetto fino a quando diventa chiaro che stanno tutti invecchiando rapidissimamente e che, stando a un rapido calcolo, la loro intera vita rischia di essersi ridotta a un unico giorno. Cosa sta succedendo? E c챔 un modo per impedire che la morte sopraggiunga?

Images





Report

Code:

General
Unique ID : 327858833366776342957364185123626306432 (0xF6A7508130D3158A0898F7F2E0CE4B80)
Complete name : E:\Old.2021\Old.2021.iTA-ENG.WEBDL.2160p.HDR.x265-CYBER.mkv
Format : Matroska
Format version : Version 2
File size : 12.5 GiB
Duration : 1 h 48 min
Overall bit rate : 16.5 Mb/s
Movie name : "ENJOY"
Encoded date : UTC 2021-10-13 18:30:51
Writing application : mkvmerge v45.0.0 (Heaven in Pennies) 64-bit
Writing library : libebml v1.3.10 + libmatroska v1.5.2

Video
ID : 1
Format : HEVC
Format/Info : High Efficiency Video Coding
Format profile : Main [email protected]@High
HDR format : SMPTE ST 2086, HDR10 compatible
Codec ID : V_MPEGH/ISO/HEVC
Duration : 1 h 48 min
Bit rate : 14.5 Mb/s
Width : 3 840 pixels
Height : 1 606 pixels
Display aspect ratio : 2.40:1
Frame rate mode : Constant
Frame rate : 23.976 (24000/1001) FPS
Color space : YUV
Chroma subsampling : 4:2:0 (Type 2)
Bit depth : 10 bits
Bits/(Pixel*Frame) : 0.098
Stream size : 11.0 GiB (88%)
Language : English
Default : Yes
Forced : No
Color range : Limited
Color primaries : BT.2020
Transfer characteristics : PQ
Matrix coefficients : BT.2020 non-constant
Mastering display color primaries : BT.2020
Mastering display luminance : min: 0.0050 cd/m2, max: 1000 cd/m2
Maximum Content Light Level : 430 cd/m2
Maximum Frame-Average Light Level : 108 cd/m2

Audio #1
ID : 2
Format : AC-3
Format/Info : Audio Coding 3
Commercial name : Dolby Digital
Codec ID : A_AC3
Duration : 1 h 48 min
Bit rate mode : Constant
Bit rate : 640 kb/s
Channel(s) : 6 channels
Channel layout : L R C LFE Ls Rs
Sampling rate : 48.0 kHz
Frame rate : 31.250 FPS (1536 SPF)
Compression mode : Lossy
Stream size : 498 MiB (4%)
Language : Italian
Service kind : Complete Main
Default : Yes
Forced : No

Audio #2
ID : 3
Format : AC-3
Format/Info : Audio Coding 3
Commercial name : Dolby Digital
Codec ID : A_AC3
Duration : 1 h 48 min
Bit rate mode : Constant
Bit rate : 640 kb/s
Channel(s) : 6 channels
Channel layout : L R C LFE Ls Rs
Sampling rate : 48.0 kHz
Frame rate : 31.250 FPS (1536 SPF)
Compression mode : Lossy
Stream size : 496 MiB (4%)
Language : Italian
Service kind : Complete Main
Default : No
Forced : No

Audio #3
ID : 4
Format : E-AC-3 JOC
Format/Info : Enhanced AC-3 with Joint Object Coding
Commercial name : Dolby Digital Plus with Dolby Atmos
Codec ID : A_EAC3
Duration : 1 h 48 min
Bit rate mode : Constant
Bit rate : 768 kb/s
Channel(s) : 6 channels
Channel layout : L R C LFE Ls Rs
Sampling rate : 48.0 kHz
Frame rate : 31.250 FPS (1536 SPF)
Compression mode : Lossy
Stream size : 596 MiB (5%)
Title : English
Language : English
Service kind : Complete Main
Default : No
Forced : No
Complexity index : 16
Number of dynamic objects : 15
Bed channel count : 1 channel
Bed channel configuration : LFE

Text #1
ID : 5
Format : UTF-8
Codec ID : S_TEXT/UTF8
Codec ID/Info : UTF-8 Plain Text
Duration : 1 h 18 min
Bit rate : 0 b/s
Count of elements : 4
Stream size : 121 Bytes (0%)
Language : Italian
Default : Yes
Forced : No

Text #2
ID : 6
Format : UTF-8
Codec ID : S_TEXT/UTF8
Codec ID/Info : UTF-8 Plain Text
Duration : 1 h 46 min
Bit rate : 46 b/s
Count of elements : 1045
Stream size : 36.7 KiB (0%)
Language : Italian
Default : No
Forced : No

Menu
00:00:00.000 : :Chapter 1
00:05:50.224 : :Chapter 2
00:13:46.742 : :Chapter 3
00:18:35.572 : :Chapter 4
00:23:05.801 : :Chapter 5
00:28:33.169 : :Chapter 6
00:32:43.545 : :Chapter 7
00:38:01.779 : :Chapter 8
00:43:26.020 : :Chapter 9
00:47:54.496 : :Chapter 10
00:53:05.932 : :Chapter 11
01:01:33.064 : :Chapter 12
01:05:11.491 : :Chapter 13
01:08:52.461 : :Chapter 14
01:12:44.193 : :Chapter 15
01:18:59.693 : :Chapter 16
01:23:29.921 : :Chapter 17
01:29:13.348 : :Chapter 18
01:34:26.744 : :Chapter 19
01:41:18.405 : :Chapter 20



Good Download

Old.2021.iTA-ENG.WEBDL.2160p.HDR.x265-CYBER.mkv


<< 이 게시판에서 관련된 자료 목록 >>
0 Comments     0.0 / 0
 [구글검색] 구글에서 더토렌트 검색 - 구글에서 토렌트를 검색하실 때에 검색어 뒤에 더토렌트를 꼭 붙여서 검색하세요.     더토렌트에서 광고중인 웹에 문제가 있다면 메뉴에 나와 있는 운영자 이메일로 연락 주십시오.     사용자님의 다운로드가 완료될 때까지 저희가 함께하겠습니다. 편안하고 즐거운 시간 되십시오.

파일마루

  

  

오늘의 업데이트


현재 인기있는 자료


영화 인기글


오늘의 인기글


실시간 검색어


3일 인기 자료


Facebook Twitter GooglePlus KakaoStory NaverBand