The.Protege.2021.2160p.WEB-DL.x265.10bit.HDR.DDP5.1.Atmos-NOGRP > 영화 > 모던 토렌트 더토렌트

팝업레이어 알림

팝업레이어 알림이 없습니다.
 [구글검색] 구글에서 더토렌트 검색 - 구글에서 토렌트를 검색하실 때에 검색어 뒤에 더토렌트를 꼭 붙여서 검색하세요.     더토렌트에서 광고중인 웹에 문제가 있다면 메뉴에 나와 있는 운영자 이메일로 연락 주십시오.     사용자님의 다운로드가 완료될 때까지 저희가 함께하겠습니다. 편안하고 즐거운 시간 되십시오.

파일썬

  

  
The.Protege.2021.2160p.WEB-DL.x265.10bit.HDR.DDP5.1.Atmos-NOGRP 토렌트

The.Protege.2021.2160p.WEB-DL.x265.10bit.HDR.DDP5.1.Atmos-NOGRP
댓글 0 조회 17 인증 0 신고 0

24939105054031117769.png87042738226519906837.png98543080262490368559.png

Screens... :
24939105054031117769.png87042738226519906837.png98543080262490368559.png




Infolink -> https://www.imdb.com/title/tt6079772/

Mediainfo

Quote:

Video
ID : 1
Format : HEVC
Format/Info : High Efficiency Video Coding
Format profile : Main [email protected]@High
HDR format : SMPTE ST 2086, HDR10 compatible
Codec ID : V_MPEGH/ISO/HEVC
Duration : 1 h 48 min
Bit rate : 14.3 Mb/s
Width : 3 832 pixels
Height : 1 600 pixels
Display aspect ratio : 2.40:1
Frame rate mode : Constant
Frame rate : 23.976 FPS
Color space : YUV
Chroma subsampling : 4:2:0 (Type 2)
Bit depth : 10 bits
Bits/(Pixel*Frame) : 0.097
Stream size : 10.9 GiB (95%)
Language : English
Default : Yes
Forced : No
Color range : Limited
Color primaries : BT.2020
Transfer characteristics : PQ
Matrix coefficients : BT.2020 non-constant
Mastering display color primaries : BT.2020
Mastering display luminance : min: 0.0050 cd/m2, max: 1000 cd/m2
Maximum Content Light Level : 2070 cd/m2
Maximum Frame-Average Light Level : 937 cd/m2

Audio
ID : 2
Format : E-AC-3 JOC
Format/Info : Enhanced AC-3 with Joint Object Coding
Commercial name : Dolby Digital Plus with Dolby Atmos
Codec ID : A_EAC3
Duration : 1 h 48 min
Bit rate mode : Constant
Bit rate : 768 kb/s
Channel(s) : 6 channels
Channel layout : L R C LFE Ls Rs
Sampling rate : 48.0 kHz
Frame rate : 31.250 FPS (1536 SPF)
Compression mode : Lossy
Stream size : 598 MiB (5%)
Title : English
Language : English
Service kind : Complete Main
Default : No
Forced : No
Complexity index : 16
Number of dynamic objects : 15
Bed channel count : 1 channel
Bed channel configuration : LFE

Text #1
ID : 3
Format : UTF-8
Codec ID : S_TEXT/UTF8
Codec ID/Info : UTF-8 Plain Text
Duration : 2 min 59 s
Bit rate : 29 b/s
Count of elements : 30
Stream size : 658 Bytes (0%)
Title : FORCED
Language : English
Default : Yes
Forced : Yes

Text #2
ID : 4
Format : UTF-8
Codec ID : S_TEXT/UTF8
Codec ID/Info : UTF-8 Plain Text
Duration : 1 h 37 min
Bit rate : 36 b/s
Count of elements : 784
Stream size : 25.7 KiB (0%)
Language : English
Default : No
Forced : No

The.Protege.2021.2160p.WEB-DL.x265.10bit.HDR.DDP5.1.Atmos-NOGRP


<< 이 게시판에서 관련된 자료 목록 >>
0 Comments     0.0 / 0
 [구글검색] 구글에서 더토렌트 검색 - 구글에서 토렌트를 검색하실 때에 검색어 뒤에 더토렌트를 꼭 붙여서 검색하세요.     더토렌트에서 광고중인 웹에 문제가 있다면 메뉴에 나와 있는 운영자 이메일로 연락 주십시오. 우리는 당신에게 꼭 필요한 사이트만 광고합니다.     사용자님의 다운로드가 완료될 때까지 저희가 함께하겠습니다. 편안하고 즐거운 시간 되십시오.

파일몽

  

  

New
Sur la route (2014) download

오늘(6시간)의 업데이트


현재 인기있는 자료


영화 인기글


오늘의 인기글


실시간 검색어


3일 인기 자료


Facebook Twitter GooglePlus KakaoStory NaverBand