The.Stronghold.2021.FRENCH.1080p.NF.WEBRip.DDP5.1.x264-AGLET > 영화 > 모던 토렌트 더토렌트

팝업레이어 알림

팝업레이어 알림이 없습니다.
 [구글검색] 구글에서 더토렌트 검색 - 구글에서 토렌트를 검색하실 때에 검색어 뒤에 더토렌트를 꼭 붙여서 검색하세요.     더토렌트에서 광고중인 웹에 문제가 있다면 메뉴에 나와 있는 운영자 이메일로 연락 주십시오.     사용자님의 다운로드가 완료될 때까지 저희가 함께하겠습니다. 편안하고 즐거운 시간 되십시오.

파일비트

  

  
The.Stronghold.2021.FRENCH.1080p.NF.WEBRip.DDP5.1.x264-AGLET 토렌트
  • 줄거리:    Screens... (click to enlarge): Infolink -> https://www.imdb.com/title/tt10404944/MediainfoQuote:VideoID : 1Format : AVCFormat/Info : Advanced Video CodecFormat profile : [email protected]Format settings : CABAC / 3 Ref FramesFormat settings, CABAC : YesFormat settings, Reference frames : 3 framesCodec ID : V_MPEG4/ISO/AVCDuration : 1 h 45 minBit rate mode : VariableBit rate : 2 227 kb/sNominal bit rate : 3 002 kb/sMaximum bit rate : 4 740 kb/sWidth : 1 920 pixelsHeight : 1 080 pixelsDisplay aspect ratio : 16:9Frame rate mode : ConstantFrame rate : 24.000 FPSColor space : YUVChroma subsampling : 4:2:0Bit depth : 8 bitsScan type : ProgressiveBits/(Pixel*Frame) : 0.045Stream size : 1.64 GiB (63%)Writing library : x264 core 148 r2724 dbe0335Encoding settings : cabac=1 / ref=3 / deblock=1:0:0 / analyse=0x1:0x111 / me=umh / subme=10 / psy=1 / psy_rd=1.00:0.00 / mixed_ref=1 / me_range=24 / chroma_me=1 / trellis=2 / 8x8dct=0 / cqm=0 / deadzone=21,11 / fast_pskip=1 / chroma_qp_offset=-2 / threads=8 / lookahead_threads=1 / sliced_threads=0 / nr=0 / decimate=1 / interlaced=0 / bluray_compat=0 / stitchable=1 / constrained_intra=0 / bframes=2 / b_pyramid=0 / b_adapt=2 / b_bias=0 / direct=3 / weightb=1 / open_gop=0 / weightp=2 / keyint=250 / keyint_min=24 / scenecut=0 / intra_refresh=0 / rc_lookahead=48 / rc=2pass / mbtree=1 / bitrate=3002 / ratetol=1.0 / qcomp=0.50 / qpmin=6 / qpmax=51 / qpstep=4 / cplxblur=20.0 / qblur=0.5 / vbv_maxrate=4740 / vbv_bufsize=6320 / nal_hrd=vbr / filler=0 / ip_ratio=1.40 / aq=1:1.00Language : FrenchDefault : YesForced : NoAudio #1ID : 2Format : E-AC-3Format/Info : Enhanced AC-3Commercial name : Dolby Digital PlusCodec ID : A_EAC3Duration : 1 h 45 minBit rate mode : ConstantBit rate : 640 kb/sChannel(s) : 6 channelsChannel layout : L R C LFE Ls RsSampling rate : 48.0 kHzFrame rate : 31.250 FPS (1536 SPF)Compression mode : LossyStream size : 481 MiB (18%)Language : FrenchService kind : Complete MainDefault : YesForced : NoAudio #2ID : 3Format : E-AC-3Format/Info : Enhanced AC-3Commercial name : Dolby Digital PlusCodec ID : A_EAC3Duration : 1 h 45 minBit rate mode : ConstantBit rate : 640 kb/sChannel(s) : 6 channelsChannel layout : L R C LFE Ls RsSampling rate : 48.0 kHzFrame rate : 31.250 FPS (1536 SPF)Compression mode : LossyStream size : 481 MiB (18%)Language : EnglishService kind : Complete MainDefault : NoForced : NoText #1ID : 4Format : UTF-8Codec ID : S_TEXT/UTF8Codec ID/Info : UTF-8 Plain TextDuration : 1 h 44 minBit rate : 0 b/sCount of elements : 13Stream size : 399 Bytes (0%)Title : ForcedLanguage : EnglishDefault : NoForced : YesText #2ID : 5Format : UTF-8Codec ID : S_TEXT/UTF8Codec ID/Info : UTF-8 Plain TextDuration : 1 h 35 minBit rate : 64 b/sCount of elements : 1443Stream size : 45.5 KiB (0%)Title : SDHLanguage : FrenchDefault : NoForced : NoText #3ID : 6Format : UTF-8Codec ID : S_TEXT/UTF8Codec ID/Info : UTF-8 Plain TextDuration : 1 h 38 minBit rate : 87 b/sCount of elements : 1264Stream size : 62.8 KiB (0%)Language : ArabicDefault : NoForced : NoText #4ID : 7Format : UTF-8Codec ID : S_TEXT/UTF8Codec ID/Info : UTF-8 Plain TextDuration : 1 h 44 minBit rate : 44 b/sCount of elements : 1278Stream size : 33.7 KiB (0%)Language : CzechDefault : NoForced : NoText #5ID : 8Format : UTF-8Codec ID : S_TEXT/UTF8Codec ID/Info : UTF-8 Plain TextDuration : 1 h 44 minBit rate : 43 b/sCount of elements : 1192Stream size : 32.9 KiB (0%)Language : DanishDefault : NoForced : NoText #6ID : 9Format : UTF-8Codec ID : S_TEXT/UTF8Codec ID/Info : UTF-8 Plain TextDuration : 1 h 44 minBit rate : 45 b/sCount of elements : 1191Stream size : 34.9 KiB (0%)Language : GermanDefault : NoForced : NoText #7ID : 10Format : UTF-8Codec ID : S_TEXT/UTF8Codec ID/Info : UTF-8 Plain TextDuration : 1 h 44 minBit rate : 75 b/sCount of elements : 1265Stream size : 57.2 KiB (0%)Language : GreekDefault : NoForced : NoText #8ID : 11Format : UTF-8Codec ID : S_TEXT/UTF8Codec ID/Info : UTF-8 Plain TextDuration : 1 h 38 minBit rate : 80 b/sCount of elements : 1638Stream size : 58.0 KiB (0%)Title : SDHLanguage : EnglishDefault : NoForced : NoText #9ID : 12Format : UTF-8Codec ID : S_TEXT/UTF8Codec ID/Info : UTF-8 Plain TextDuration : 1 h 38 minBit rate : 66 b/sCount of elements : 1342Stream size : 47.8 KiB (0%)Language : EnglishDefault : NoForced : NoText #10ID : 13Format : UTF-8Codec ID : S_TEXT/UTF8Codec ID/Info : UTF-8 Plain TextDuration : 1 h 44 minBit rate : 44 b/sCount of elements : 1247Stream size : 33.9 KiB (0%)Language : SpanishDefault : NoForced : NoText #11ID : 14Format : UTF-8Codec ID : S_TEXT/UTF8Codec ID/Info : UTF-8 Plain TextDuration : 1 h 44 minBit rate : 44 b/sCount of elements : 1237Stream size : 34.3 KiB (0%)Title : EuropeanLanguage : SpanishDefault : NoForced : NoText #12ID : 15Format : UTF-8Codec ID : S_TEXT/UTF8Codec ID/Info : UTF-8 Plain TextDuration : 1 h 44 minBit rate : 41 b/sCount of elements : 910Stream size : 31.6 KiB (0%)Language : FinnishDefault : NoForced : NoText #13ID : 16Format : UTF-8Codec ID : S_TEXT/UTF8Codec ID/Info : UTF-8 Plain TextDuration : 1 h 44 minBit rate : 73 b/sCount of elements : 1254Stream size : 56.3 KiB (0%)Language : HebrewDefault : NoForced : NoText #14ID : 17Format : UTF-8Codec ID : S_TEXT/UTF8Codec ID/Info : UTF-8 Plain TextDuration : 1 h 44 minBit rate : 40 b/sCount of elements : 1224Stream size : 31.2 KiB (0%)Language : CroatianDefault : NoForced : NoText #15ID : 18Format : UTF-8Codec ID : S_TEXT/UTF8Codec ID/Info : UTF-8 Plain TextDuration : 1 h 44 minBit rate : 46 b/sCount of elements : 1193Stream size : 35.7 KiB (0%)Language : HungarianDefault : NoForced : NoText #16ID : 19Format : UTF-8Codec ID : S_TEXT/UTF8Codec ID/Info : UTF-8 Plain TextDuration : 1 h 44 minBit rate : 43 b/sCount of elements : 1255Stream size : 33.4 KiB (0%)Language : IndonesianDefault : NoForced : NoText #17ID : 20Format : UTF-8Codec ID : S_TEXT/UTF8Codec ID/Info : UTF-8 Plain TextDuration : 1 h 44 minBit rate : 45 b/sCount of elements : 1213Stream size : 34.8 KiB (0%)Language : ItalianDefault : NoForced : NoText #18ID : 21Format : UTF-8Codec ID : S_TEXT/UTF8Codec ID/Info : UTF-8 Plain TextDuration : 1 h 44 minBit rate : 44 b/sCount of elements : 1414Stream size : 34.2 KiB (0%)Language : JapaneseDefault : NoForced : NoText #19ID : 22Format : UTF-8Codec ID : S_TEXT/UTF8Codec ID/Info : UTF-8 Plain TextDuration : 1 h 44 minBit rate : 59 b/sCount of elements : 1260Stream size : 45.1 KiB (0%)Language : KoreanDefault : NoForced : NoText #20ID : 23Format : UTF-8Codec ID : S_TEXT/UTF8Codec ID/Info : UTF-8 Plain TextDuration : 1 h 44 minBit rate : 44 b/sCount of elements : 1253Stream size : 33.7 KiB (0%)Language : MalayDefault : NoForced : NoText #21ID : 24Format : UTF-8Codec ID : S_TEXT/UTF8Codec ID/Info : UTF-8 Plain TextDuration : 1 h 44 minBit rate : 37 b/sCount of elements : 1114Stream size : 28.9 KiB (0%)Language : Norwegian BokmalDefault : NoForced : NoText #22ID : 25Format : UTF-8Codec ID : S_TEXT/UTF8Codec ID/Info : UTF-8 Plain TextDuration : 1 h 44 minBit rate : 44 b/sCount of elements : 1213Stream size : 33.7 KiB (0%)Language : DutchDefault : NoForced : NoText #23ID : 26Format : UTF-8Codec ID : S_TEXT/UTF8Codec ID/Info : UTF-8 Plain TextDuration : 1 h 44 minBit rate : 41 b/sCount of elements : 1229Stream size : 31.7 KiB (0%)Language : PolishDefault : NoForced : NoText #24ID : 27Format : UTF-8Codec ID : S_TEXT/UTF8Codec ID/Info : UTF-8 Plain TextDuration : 1 h 44 minBit rate : 45 b/sCount of elements : 1221Stream size : 34.3 KiB (0%)Language : PortugueseDefault : NoForced : NoText #25ID : 28Format : UTF-8Codec ID : S_TEXT/UTF8Codec ID/Info : UTF-8 Plain TextDuration : 1 h 44 minBit rate : 46 b/sCount of elements : 1242Stream size : 35.5 KiB (0%)Title : BrazilianLanguage : PortugueseDefault : NoForced : NoText #26ID : 29Format : UTF-8Codec ID : S_TEXT/UTF8Codec ID/Info : UTF-8 Plain TextDuration : 1 h 44 minBit rate : 50 b/sCount of elements : 1240Stream size : 38.7 KiB (0%)Language : RomanianDefault : NoForced : NoText #27ID : 30Format : UTF-8Codec ID : S_TEXT/UTF8Codec ID/Info : UTF-8 Plain TextDuration : 1 h 38 minBit rate : 78 b/sCount of elements : 1240Stream size : 56.4 KiB (0%)Language : RussianDefault : NoForced : NoText #28ID : 31Format : UTF-8Codec ID : S_TEXT/UTF8Codec ID/Info : UTF-8 Plain TextDuration : 1 h 44 minBit rate : 43 b/sCount of elements : 1141Stream size : 32.8 KiB (0%)Language : SwedishDefault : NoForced : NoText #29ID : 32Format : UTF-8Codec ID : S_TEXT/UTF8Codec ID/Info : UTF-8 Plain TextDuration : 1 h 44 minBit rate : 119 b/sCount of elements : 1256Stream size : 90.9 KiB (0%)Language : ThaiDefault : NoForced : NoText #30ID : 33Format : UTF-8Codec ID : S_TEXT/UTF8Codec ID/Info : UTF-8 Plain TextDuration : 1 h 43 minBit rate : 44 b/sCount of elements : 1230Stream size : 33.5 KiB (0%)Language : TurkishDefault : NoForced : NoText #31ID : 34Format : UTF-8Codec ID : S_TEXT/UTF8Codec ID/Info : UTF-8 Plain TextDuration : 1 h 44 minBit rate : 68 b/sCount of elements : 1255Stream size : 52.3 KiB (0%)Language : UkrainianDefault : NoForced : NoText #32ID : 35Format : UTF-8Codec ID : S_TEXT/UTF8Codec ID/Info : UTF-8 Plain TextDuration : 1 h 44 minBit rate : 60 b/sCount of elements : 1247Stream size : 46.3 KiB (0%)Language : VietnameseDefault : NoForced : NoText #33ID : 36Format : UTF-8Codec ID : S_TEXT/UTF8Codec ID/Info : UTF-8 Plain TextDuration : 1 h 44 minBit rate : 53 b/sCount of elements : 1265Stream size : 40.6 KiB (0%)Title : SimplifiedLanguage : ChineseDefault : NoForced : NoText #34ID : 37Format : UTF-8Codec ID : S_TEXT/UTF8Codec ID/Info : UTF-8 Plain TextDuration : 1 h 38 minBit rate : 56 b/sCount of elements : 1251Stream size : 40.6 KiB (0%)Title : TraditionalLanguage : ChineseDefault : NoForced : No The.Stronghold.2021.FRENCH.1080p.NF.WEBRip.DDP5.1.x264-AGLET…
  • 인기 연관 검색어 구글 검색:    The 토렌트    albumoftheyear 토렌트    TheLong 토렌트    www albumoftheyear orguserphilomena1522 토렌트    Another 토렌트    The Sister S01 토렌트    TheYellowSea2010DCBDRipx264AC3-Zoo- 토렌트    YoWindowWeather 토렌트    TheJackbox 토렌트    RuzarThe 토렌트    
  • 관련 자료(가나다순):    "Manos": The Hands of Fate (1966) RiffTrax triple audio 720p 10…    힛츠빌 Hitsville: The Making of Motown - 더토렌트
  • 관련 자료(시간순):    더 넌 The Nun 2018 1080p KOR FHDRip H264 AAC-H2O - 더토렌트    Believe: The Eddie Izzard Story
  • 같은 시각 자료:    Cry.Macho.2021.2160p.HMAX.WEB-DL.x265.10bit.HDR.DD5.1-CM    Cry.Macho.2021.1080p.HMAX.WEB-DL.x265.10bit.HDR.DD5.1-FLUX
  • 마그넷 링크 및 토렌트 파일:     토렌트 파일 다운로드 대체     토렌트 마그넷 링크 대체     파일텐더 사이트 대체    
    광고정보

The.Stronghold.2021.FRENCH.1080p.NF.WEBRip.DDP5.1.x264-AGLET
댓글 0 조회 73 인증 0 신고 0



Screens... (click to enlarge):








Infolink -> https://www.imdb.com/title/tt10404944/

Mediainfo

Quote:

Video
ID : 1
Format : AVC
Format/Info : Advanced Video Codec
Format profile : [email protected]
Format settings : CABAC / 3 Ref Frames
Format settings, CABAC : Yes
Format settings, Reference frames : 3 frames
Codec ID : V_MPEG4/ISO/AVC
Duration : 1 h 45 min
Bit rate mode : Variable
Bit rate : 2 227 kb/s
Nominal bit rate : 3 002 kb/s
Maximum bit rate : 4 740 kb/s
Width : 1 920 pixels
Height : 1 080 pixels
Display aspect ratio : 16:9
Frame rate mode : Constant
Frame rate : 24.000 FPS
Color space : YUV
Chroma subsampling : 4:2:0
Bit depth : 8 bits
Scan type : Progressive
Bits/(Pixel*Frame) : 0.045
Stream size : 1.64 GiB (63%)
Writing library : x264 core 148 r2724 dbe0335
Encoding settings : cabac=1 / ref=3 / deblock=1:0:0 / analyse=0x1:0x111 / me=umh / subme=10 / psy=1 / psy_rd=1.00:0.00 / mixed_ref=1 / me_range=24 / chroma_me=1 / trellis=2 / 8x8dct=0 / cqm=0 / deadzone=21,11 / fast_pskip=1 / chroma_qp_offset=-2 / threads=8 / lookahead_threads=1 / sliced_threads=0 / nr=0 / decimate=1 / interlaced=0 / bluray_compat=0 / stitchable=1 / constrained_intra=0 / bframes=2 / b_pyramid=0 / b_adapt=2 / b_bias=0 / direct=3 / weightb=1 / open_gop=0 / weightp=2 / keyint=250 / keyint_min=24 / scenecut=0 / intra_refresh=0 / rc_lookahead=48 / rc=2pass / mbtree=1 / bitrate=3002 / ratetol=1.0 / qcomp=0.50 / qpmin=6 / qpmax=51 / qpstep=4 / cplxblur=20.0 / qblur=0.5 / vbv_maxrate=4740 / vbv_bufsize=6320 / nal_hrd=vbr / filler=0 / ip_ratio=1.40 / aq=1:1.00
Language : French
Default : Yes
Forced : No

Audio #1
ID : 2
Format : E-AC-3
Format/Info : Enhanced AC-3
Commercial name : Dolby Digital Plus
Codec ID : A_EAC3
Duration : 1 h 45 min
Bit rate mode : Constant
Bit rate : 640 kb/s
Channel(s) : 6 channels
Channel layout : L R C LFE Ls Rs
Sampling rate : 48.0 kHz
Frame rate : 31.250 FPS (1536 SPF)
Compression mode : Lossy
Stream size : 481 MiB (18%)
Language : French
Service kind : Complete Main
Default : Yes
Forced : No

Audio #2
ID : 3
Format : E-AC-3
Format/Info : Enhanced AC-3
Commercial name : Dolby Digital Plus
Codec ID : A_EAC3
Duration : 1 h 45 min
Bit rate mode : Constant
Bit rate : 640 kb/s
Channel(s) : 6 channels
Channel layout : L R C LFE Ls Rs
Sampling rate : 48.0 kHz
Frame rate : 31.250 FPS (1536 SPF)
Compression mode : Lossy
Stream size : 481 MiB (18%)
Language : English
Service kind : Complete Main
Default : No
Forced : No

Text #1
ID : 4
Format : UTF-8
Codec ID : S_TEXT/UTF8
Codec ID/Info : UTF-8 Plain Text
Duration : 1 h 44 min
Bit rate : 0 b/s
Count of elements : 13
Stream size : 399 Bytes (0%)
Title : Forced
Language : English
Default : No
Forced : Yes

Text #2
ID : 5
Format : UTF-8
Codec ID : S_TEXT/UTF8
Codec ID/Info : UTF-8 Plain Text
Duration : 1 h 35 min
Bit rate : 64 b/s
Count of elements : 1443
Stream size : 45.5 KiB (0%)
Title : SDH
Language : French
Default : No
Forced : No

Text #3
ID : 6
Format : UTF-8
Codec ID : S_TEXT/UTF8
Codec ID/Info : UTF-8 Plain Text
Duration : 1 h 38 min
Bit rate : 87 b/s
Count of elements : 1264
Stream size : 62.8 KiB (0%)
Language : Arabic
Default : No
Forced : No

Text #4
ID : 7
Format : UTF-8
Codec ID : S_TEXT/UTF8
Codec ID/Info : UTF-8 Plain Text
Duration : 1 h 44 min
Bit rate : 44 b/s
Count of elements : 1278
Stream size : 33.7 KiB (0%)
Language : Czech
Default : No
Forced : No

Text #5
ID : 8
Format : UTF-8
Codec ID : S_TEXT/UTF8
Codec ID/Info : UTF-8 Plain Text
Duration : 1 h 44 min
Bit rate : 43 b/s
Count of elements : 1192
Stream size : 32.9 KiB (0%)
Language : Danish
Default : No
Forced : No

Text #6
ID : 9
Format : UTF-8
Codec ID : S_TEXT/UTF8
Codec ID/Info : UTF-8 Plain Text
Duration : 1 h 44 min
Bit rate : 45 b/s
Count of elements : 1191
Stream size : 34.9 KiB (0%)
Language : German
Default : No
Forced : No

Text #7
ID : 10
Format : UTF-8
Codec ID : S_TEXT/UTF8
Codec ID/Info : UTF-8 Plain Text
Duration : 1 h 44 min
Bit rate : 75 b/s
Count of elements : 1265
Stream size : 57.2 KiB (0%)
Language : Greek
Default : No
Forced : No

Text #8
ID : 11
Format : UTF-8
Codec ID : S_TEXT/UTF8
Codec ID/Info : UTF-8 Plain Text
Duration : 1 h 38 min
Bit rate : 80 b/s
Count of elements : 1638
Stream size : 58.0 KiB (0%)
Title : SDH
Language : English
Default : No
Forced : No

Text #9
ID : 12
Format : UTF-8
Codec ID : S_TEXT/UTF8
Codec ID/Info : UTF-8 Plain Text
Duration : 1 h 38 min
Bit rate : 66 b/s
Count of elements : 1342
Stream size : 47.8 KiB (0%)
Language : English
Default : No
Forced : No

Text #10
ID : 13
Format : UTF-8
Codec ID : S_TEXT/UTF8
Codec ID/Info : UTF-8 Plain Text
Duration : 1 h 44 min
Bit rate : 44 b/s
Count of elements : 1247
Stream size : 33.9 KiB (0%)
Language : Spanish
Default : No
Forced : No

Text #11
ID : 14
Format : UTF-8
Codec ID : S_TEXT/UTF8
Codec ID/Info : UTF-8 Plain Text
Duration : 1 h 44 min
Bit rate : 44 b/s
Count of elements : 1237
Stream size : 34.3 KiB (0%)
Title : European
Language : Spanish
Default : No
Forced : No

Text #12
ID : 15
Format : UTF-8
Codec ID : S_TEXT/UTF8
Codec ID/Info : UTF-8 Plain Text
Duration : 1 h 44 min
Bit rate : 41 b/s
Count of elements : 910
Stream size : 31.6 KiB (0%)
Language : Finnish
Default : No
Forced : No

Text #13
ID : 16
Format : UTF-8
Codec ID : S_TEXT/UTF8
Codec ID/Info : UTF-8 Plain Text
Duration : 1 h 44 min
Bit rate : 73 b/s
Count of elements : 1254
Stream size : 56.3 KiB (0%)
Language : Hebrew
Default : No
Forced : No

Text #14
ID : 17
Format : UTF-8
Codec ID : S_TEXT/UTF8
Codec ID/Info : UTF-8 Plain Text
Duration : 1 h 44 min
Bit rate : 40 b/s
Count of elements : 1224
Stream size : 31.2 KiB (0%)
Language : Croatian
Default : No
Forced : No

Text #15
ID : 18
Format : UTF-8
Codec ID : S_TEXT/UTF8
Codec ID/Info : UTF-8 Plain Text
Duration : 1 h 44 min
Bit rate : 46 b/s
Count of elements : 1193
Stream size : 35.7 KiB (0%)
Language : Hungarian
Default : No
Forced : No

Text #16
ID : 19
Format : UTF-8
Codec ID : S_TEXT/UTF8
Codec ID/Info : UTF-8 Plain Text
Duration : 1 h 44 min
Bit rate : 43 b/s
Count of elements : 1255
Stream size : 33.4 KiB (0%)
Language : Indonesian
Default : No
Forced : No

Text #17
ID : 20
Format : UTF-8
Codec ID : S_TEXT/UTF8
Codec ID/Info : UTF-8 Plain Text
Duration : 1 h 44 min
Bit rate : 45 b/s
Count of elements : 1213
Stream size : 34.8 KiB (0%)
Language : Italian
Default : No
Forced : No

Text #18
ID : 21
Format : UTF-8
Codec ID : S_TEXT/UTF8
Codec ID/Info : UTF-8 Plain Text
Duration : 1 h 44 min
Bit rate : 44 b/s
Count of elements : 1414
Stream size : 34.2 KiB (0%)
Language : Japanese
Default : No
Forced : No

Text #19
ID : 22
Format : UTF-8
Codec ID : S_TEXT/UTF8
Codec ID/Info : UTF-8 Plain Text
Duration : 1 h 44 min
Bit rate : 59 b/s
Count of elements : 1260
Stream size : 45.1 KiB (0%)
Language : Korean
Default : No
Forced : No

Text #20
ID : 23
Format : UTF-8
Codec ID : S_TEXT/UTF8
Codec ID/Info : UTF-8 Plain Text
Duration : 1 h 44 min
Bit rate : 44 b/s
Count of elements : 1253
Stream size : 33.7 KiB (0%)
Language : Malay
Default : No
Forced : No

Text #21
ID : 24
Format : UTF-8
Codec ID : S_TEXT/UTF8
Codec ID/Info : UTF-8 Plain Text
Duration : 1 h 44 min
Bit rate : 37 b/s
Count of elements : 1114
Stream size : 28.9 KiB (0%)
Language : Norwegian Bokmal
Default : No
Forced : No

Text #22
ID : 25
Format : UTF-8
Codec ID : S_TEXT/UTF8
Codec ID/Info : UTF-8 Plain Text
Duration : 1 h 44 min
Bit rate : 44 b/s
Count of elements : 1213
Stream size : 33.7 KiB (0%)
Language : Dutch
Default : No
Forced : No

Text #23
ID : 26
Format : UTF-8
Codec ID : S_TEXT/UTF8
Codec ID/Info : UTF-8 Plain Text
Duration : 1 h 44 min
Bit rate : 41 b/s
Count of elements : 1229
Stream size : 31.7 KiB (0%)
Language : Polish
Default : No
Forced : No

Text #24
ID : 27
Format : UTF-8
Codec ID : S_TEXT/UTF8
Codec ID/Info : UTF-8 Plain Text
Duration : 1 h 44 min
Bit rate : 45 b/s
Count of elements : 1221
Stream size : 34.3 KiB (0%)
Language : Portuguese
Default : No
Forced : No

Text #25
ID : 28
Format : UTF-8
Codec ID : S_TEXT/UTF8
Codec ID/Info : UTF-8 Plain Text
Duration : 1 h 44 min
Bit rate : 46 b/s
Count of elements : 1242
Stream size : 35.5 KiB (0%)
Title : Brazilian
Language : Portuguese
Default : No
Forced : No

Text #26
ID : 29
Format : UTF-8
Codec ID : S_TEXT/UTF8
Codec ID/Info : UTF-8 Plain Text
Duration : 1 h 44 min
Bit rate : 50 b/s
Count of elements : 1240
Stream size : 38.7 KiB (0%)
Language : Romanian
Default : No
Forced : No

Text #27
ID : 30
Format : UTF-8
Codec ID : S_TEXT/UTF8
Codec ID/Info : UTF-8 Plain Text
Duration : 1 h 38 min
Bit rate : 78 b/s
Count of elements : 1240
Stream size : 56.4 KiB (0%)
Language : Russian
Default : No
Forced : No

Text #28
ID : 31
Format : UTF-8
Codec ID : S_TEXT/UTF8
Codec ID/Info : UTF-8 Plain Text
Duration : 1 h 44 min
Bit rate : 43 b/s
Count of elements : 1141
Stream size : 32.8 KiB (0%)
Language : Swedish
Default : No
Forced : No

Text #29
ID : 32
Format : UTF-8
Codec ID : S_TEXT/UTF8
Codec ID/Info : UTF-8 Plain Text
Duration : 1 h 44 min
Bit rate : 119 b/s
Count of elements : 1256
Stream size : 90.9 KiB (0%)
Language : Thai
Default : No
Forced : No

Text #30
ID : 33
Format : UTF-8
Codec ID : S_TEXT/UTF8
Codec ID/Info : UTF-8 Plain Text
Duration : 1 h 43 min
Bit rate : 44 b/s
Count of elements : 1230
Stream size : 33.5 KiB (0%)
Language : Turkish
Default : No
Forced : No

Text #31
ID : 34
Format : UTF-8
Codec ID : S_TEXT/UTF8
Codec ID/Info : UTF-8 Plain Text
Duration : 1 h 44 min
Bit rate : 68 b/s
Count of elements : 1255
Stream size : 52.3 KiB (0%)
Language : Ukrainian
Default : No
Forced : No

Text #32
ID : 35
Format : UTF-8
Codec ID : S_TEXT/UTF8
Codec ID/Info : UTF-8 Plain Text
Duration : 1 h 44 min
Bit rate : 60 b/s
Count of elements : 1247
Stream size : 46.3 KiB (0%)
Language : Vietnamese
Default : No
Forced : No

Text #33
ID : 36
Format : UTF-8
Codec ID : S_TEXT/UTF8
Codec ID/Info : UTF-8 Plain Text
Duration : 1 h 44 min
Bit rate : 53 b/s
Count of elements : 1265
Stream size : 40.6 KiB (0%)
Title : Simplified
Language : Chinese
Default : No
Forced : No

Text #34
ID : 37
Format : UTF-8
Codec ID : S_TEXT/UTF8
Codec ID/Info : UTF-8 Plain Text
Duration : 1 h 38 min
Bit rate : 56 b/s
Count of elements : 1251
Stream size : 40.6 KiB (0%)
Title : Traditional
Language : Chinese
Default : No
Forced : No

The.Stronghold.2021.FRENCH.1080p.NF.WEBRip.DDP5.1.x264-AGLET


<< 이 게시판에서 관련된 자료 목록 >>
0 Comments     0.0 / 0
 [구글검색] 구글에서 더토렌트 검색 - 구글에서 토렌트를 검색하실 때에 검색어 뒤에 더토렌트를 꼭 붙여서 검색하세요.     더토렌트에서 광고중인 웹에 문제가 있다면 메뉴에 나와 있는 운영자 이메일로 연락 주십시오. 우리는 당신에게 꼭 필요한 사이트만 광고합니다.     사용자님의 다운로드가 완료될 때까지 저희가 함께하겠습니다. 편안하고 즐거운 시간 되십시오.

파일몽

  

  

오늘(6시간)의 업데이트


현재 인기있는 자료


영화 인기글


오늘의 인기글


실시간 검색어


3일 인기 자료


Facebook Twitter GooglePlus KakaoStory NaverBand